новый адрес зеркало Восстание зловещих мертвецов / Evil Dead Rise [2023 г., ужасы, WEB-DLRip 720p / 60 FPS, Дубляж] от R.G. HD-Films смотреть онлайн, скачать торрент mel.piratbit.fun
Аватар: Путь воды

Лицензия

В те дни

1 сезон

скачать смотреть онлайн John Wick Chapter 4

MVO

Крик 6

Дубляж

13 клиническая

3 сезон

Восстание зловещих мертвецов

Дубляж

Одни из нас

Дубляж

Dead Island 2 Gold

Gold

Deluxe RUS

Deluxe RUS

pack

Рекомендуем

ВАЖНО

ВАЖНО

30

Repack

The Lord of the Rings: Gollum

Лицензия

jed

RePack

nioh2

RePack

RDR2

RePack

NEED FOR SPEED™ PAYBACK

RePack

скачать торрент

Кинопоиск HD

Острые козырьки 6 сезон

6 сезон

FAR CRY 6

RePack

скачать торрент

Лицензия

скачать торрент

MVO

1

1 сезон

скачать торрент

1 сезон

скачать торрент

Лицензия

  

Восстание зловещих мертвецов / Evil Dead Rise (Ли Кронин) [2023 г., ужасы, WEB-DLRip 720p / 60 FPS, Дубляж] от R.G. HD-Films

Восстание зловещих мертвецов через торрент mel.piratbit.fun

Раздают: 20 [ 0 KB/s ]
Размер: 3.21 GB | Добавлен: 11 д. назад | Торрент скачан:181 раз
Смотреть онлайн | Скачать | Поддержите нас   

25-05-2023 12:31 Восстание зловещих мертвецов Скачать торрент  

Восстание зловещих мертвецов / Evil Dead Rise
Год выпуска: 2023
Страна: США,Ирландия,Новая Зеландия
Жанр: ужасы
Продолжительность: 01:36:25
Перевод: Дубляж (Bravo Records Georgia / Movie Dubbing)
Субтитры: Русские, украинские, английские

Режиссер: Ли Кронин

Премьера в мире: 19 апреля 2023

rating

В ролях: Алисса Сазерленд,Лили Салливан,Моргана Дейвис,Нелл Фишер,Джейден Дэниелс,Габриэль Экхолс,Билли Рейнольдс-Маккарти,Tai Wano

Описание: Воссоединение двух сестер прерывает появление демонов, которые втягивают девушек в борьбу за выживание.

Качество: WEB-DLRip 720p / 60 FPS
Формат: MKV
Видео кодек: H.264
Аудио кодек: AC3
Видео: x264, 1280 x 534 ( 2,40:1 ), 4 375 kbps, 60,000 fps, ( 0.107 bpp)
Аудио#2: Русский, AC-3, 48.0 KHz, 6 ch, 384 Kbps Дубляж (Bravo Records Georgia / Movie Dubbing)
Релиз от:




Автор рипа: slaventi-69
Общее
Уникальный идентификатор : 26205568584660716503022421042686443694 (0x13B70248E37007AAF5A9762EADCDC0AE)
Полное имя : G:\60 FPS\Evil.Dead.Rise.(2023).WEB-DLRip.720p.(60 Fps).mkv
Формат : Matroska
Версия формата : Version 4
Размер файла : 3,21 Гбайт
Продолжительность : 1 ч. 36 м.
Общий поток : 4 763 Кбит/сек
Название фильма : Восстание зловещих мертвецов / Evil Dead Rise (2023) WEB-DLRip 720p (60 Fps)
Дата кодирования : UTC 2023-05-25 11:56:34
Программа кодирования : mkvmerge v76.0 ('Celebration') 64-bit
Библиотека кодирования : libebml v1.4.4 + libmatroska v1.7.1

Видео
Идентификатор : 1
Формат : AVC
Формат/Информация : Advanced Video Codec
Профиль формата : High@L4.1
Настройки формата : CABAC / 9 Ref Frames
Параметр CABAC формата : Да
Параметр RefFrames формата : 9 кадров
Идентификатор кодека : V_MPEG4/ISO/AVC
Продолжительность : 1 ч. 36 м.
Битрейт : 4 375 Кбит/сек
Номинальный битрейт : 4 600 Кбит/сек
Ширина : 1 280 пикселей
Высота : 534 пикселя
Соотношение сторон : 2,40:1
Режим частоты кадров : Постоянный
Частота кадров : 60,000 кадров/сек
Цветовое пространство : YUV
Субдискретизация насыщенности : 4:2:0
Битовая глубина : 8 бит
Тип развёртки : Прогрессивная
Бит/(Пиксели*Кадры) : 0.107
Размер потока : 2,95 Гбайт (92%)
Заголовок : slaventi-69 ( R.G. HD-Films | 60 fps )
Библиотека кодирования : x264 core 157 r2958 57baac4
Настройки программы : cabac=1 / ref=9 / deblock=1:-1:-1 / analyse=0x3:0x133 / me=umh / subme=9 / psy=1 / psy_rd=1.00:0.00 / mixed_ref=1 / me_range=32 / chroma_me=1 / trellis=2 / 8x8dct=1 / cqm=0 / deadzone=21,11 / fast_pskip=1 / chroma_qp_offset=-2 / threads=5 / lookahead_threads=1 / sliced_threads=0 / nr=0 / decimate=1 / interlaced=0 / bluray_compat=0 / constrained_intra=0 / bframes=8 / b_pyramid=2 / b_adapt=2 / b_bias=2 / direct=1 / weightb=1 / open_gop=0 / weightp=2 / keyint=600 / keyint_min=60 / scenecut=40 / intra_refresh=0 / rc_lookahead=40 / rc=cbr / mbtree=1 / bitrate=4600 / ratetol=1.0 / qcomp=0.60 / qpmin=0 / qpmax=69 / qpstep=4 / vbv_maxrate=4600 / vbv_bufsize=3285 / nal_hrd=none / filler=0 / ip_ratio=1.40 / aq=1:1.00
Язык : English
Default : Да
Forced : Нет
Цветовой диапазон : Limited
Основные цвета : BT.709
Характеристики трансфера : BT.709
Коэффициенты матрицы : BT.709

Аудио
Идентификатор : 2
Формат : AC-3
Формат/Информация : Audio Coding 3
Коммерческое название : Dolby Digital
Идентификатор кодека : A_AC3
Продолжительность : 1 ч. 36 м.
Вид битрейта : Постоянный
Битрейт : 384 Кбит/сек
Каналы : 6 каналов
Channel layout : L R C LFE Ls Rs
Частота : 48,0 КГц
Частота кадров : 31,250 кадров/сек (1536 SPF)
Битовая глубина : 32 бит
Метод сжатия : С потерями
Размер потока : 265 Мбайт (8%)
Заголовок : Дубляж (Bravo Records Georgia / Movie Dubbing)
Язык : Russian
Service kind : Complete Main
Default : Да
Forced : Нет

Текст #1
Идентификатор : 3
Формат : UTF-8
Идентификатор кодека : S_TEXT/UTF8
Идентификатор кодека/Информация : UTF-8 Plain Text
Продолжительность : 1 ч. 26 м.
Битрейт : 1 бит/сек
Частота кадров : 0,005 кадр/сек
Count of elements : 27
Размер потока : 1,24 Кбайт (0%)
Заголовок : Forced
Язык : Russian
Default : Да
Forced : Нет

Текст #2
Идентификатор : 4
Формат : UTF-8
Идентификатор кодека : S_TEXT/UTF8
Идентификатор кодека/Информация : UTF-8 Plain Text
Продолжительность : 1 ч. 27 м.
Битрейт : 43 бит/сек
Частота кадров : 0,120 кадр/сек
Count of elements : 635
Размер потока : 28,2 Кбайт (0%)
Заголовок : Full
Язык : Russian
Default : Нет
Forced : Нет

Текст #3
Идентификатор : 5
Формат : UTF-8
Идентификатор кодека : S_TEXT/UTF8
Идентификатор кодека/Информация : UTF-8 Plain Text
Продолжительность : 1 ч. 35 м.
Битрейт : 40 бит/сек
Частота кадров : 0,111 кадр/сек
Count of elements : 636
Размер потока : 28,0 Кбайт (0%)
Заголовок : Full
Язык : Ukrainian
Default : Нет
Forced : Нет

Текст #4
Идентификатор : 6
Формат : UTF-8
Идентификатор кодека : S_TEXT/UTF8
Идентификатор кодека/Информация : UTF-8 Plain Text
Продолжительность : 1 ч. 27 м.
Битрейт : 27 бит/сек
Частота кадров : 0,124 кадр/сек
Count of elements : 656
Размер потока : 17,9 Кбайт (0%)
Заголовок : Full
Язык : English
Default : Нет
Forced : Нет

Текст #5
Идентификатор : 7
Формат : UTF-8
Идентификатор кодека : S_TEXT/UTF8
Идентификатор кодека/Информация : UTF-8 Plain Text
Продолжительность : 1 ч. 36 м.
Битрейт : 38 бит/сек
Частота кадров : 0,191 кадр/сек
Count of elements : 1103
Размер потока : 26,8 Кбайт (0%)
Заголовок : SDH
Язык : English
Default : Нет
Forced : Нет

Меню
00:00:00.000 : en:Chapter 01
00:11:02.871 : en:Chapter 02
00:21:20.030 : en:Chapter 03
00:30:10.352 : en:Chapter 04
00:39:46.720 : en:Chapter 05
00:50:15.098 : en:Chapter 06
01:00:02.143 : en:Chapter 07
01:09:21.327 : en:Chapter 08
01:18:26.164 : en:Chapter 09
01:30:09.909 : en:Chapter 10

Просьба к переливающим на другие сайты, в оформлении указывайте пожалуйста авторство группы R.G. HD-Films



Скачать Восстание зловещих мертвецов через торрент https://st-kp-yandex-net.translate.goog/images/film_iphone/iphone360_1446132.jpg Скачать, смотреть онлайн Восстание зловещих мертвецов бесплатно в хорошем качестве Описание: Воссоединение двух сестер прерывает появление демонов, которые втягивают девушек в борьбу ... 9.4 10 5
Торрент: Зарегистрирован [2023-05-25 12:31] · скачан: 181 раз
Статус: √ проверено
Размер: 3.21 GB
Как cкачать? Как скачать Восстание зловещих мертвецов через торрент | UTorrent

% Раздел Тема Автор DL S | L
Фильмы 2022-2023 [DVDrip, WEB-DLRip, HDrip] (DUB, MVO) [ 1.29 GB ] Восстание зловещих мертвецов / Evil Dead Rise | DUB | DLRip-AVC bober100 Скачать
16 | 0
Ultra HD (UHD: 2K, 4K, 8K) [ 18.7 GB ] Восстание зловещих мертвецов / Evil Dead Rise | TVShows | 2160p, (Dolby Vision Profile 8 bober100 Скачать
23 | 2
Фильмы 2022-2023 [DVDrip, WEB-DLRip, HDrip] (DUB, MVO) [ 1.46 GB ] Восстание зловещих мертвецов / Evil Dead Rise | DUB | DLRip bober100 Скачать
12 | 0
Фильмы 2022-2023 [DVDrip, WEB-DLRip, HDrip] (DUB, MVO) [ 1.46 GB ] Восстание зловещих мертвецов / Evil Dead Rise | HDRezka Studio | DLRip bober100 Скачать
31 | 0
Фильмы (WEB-DL 720p, 1080p) [ 7.5 GB ] Восстание зловещих мертвецов / Evil Dead Rise | TVShows | 1080p bober100 Скачать
32 | 0

28-11-2019 20:33  


Отключить вcю реклaмy на сайте, в т.ч. и в плеере онлайн просмотра!

    Дорогой пользователь! Огромная просьба, поблагодарите релизера, оцените раздачу и оставьте свои комментарий, если Вы скачали Восстание зловещих мертвецов через торрент бесплатно!!
    Комментировать посты могут только пользователи прошедшие не сложную регистрацию
    Показать сообщения:    


    Восстание зловещих мертвецов через торрент
    Скачать бесплатно Восстание зловещих мертвецов
    Восстание зловещих мертвецов скачать торрент
    Восстание зловещих мертвецов смотреть онлайн
    Cкачать фильм Восстание зловещих мертвецов бесплатно
    Восстание зловещих мертвецов скачать торрент в хорошем качестве
    Восстание зловещих мертвецов смотреть онлайн бесплатно в хорошем качестве
    Вы не можете начинать темы
    Вы не можете отвечать на сообщения
    Вы не можете редактировать свои сообщения
    Вы не можете удалять свои сообщения
    Вы не можете голосовать в опросах
    Вы не можете прикреплять файлы к сообщениям
    Вы можете скачивать файлы